Ergebnis 1 bis 6 von 6

Thema: Kein ton im video

  1. #1
    Senior Avatar von SPAM-SPAM
    Registriert
    Jan 2016
    Beiträge
    422
    Gefällt mir!
    344
    Du gefällst: 216

    Kein ton im video

    Einen schönen guten tag die damen ich habe sehr lange schon einen yt [kanal] und erstelle videos von spielen mit dem progi LoiLoGameRecorder free alles gut so weit jetzt habe ich ein wenig google gefragt wegen einen intro habe auch was gefunden und habe drei versuche die mir gleich gefallen haben und jetzt noch ein progi gekauft Ashampoo Movie Studio Pro 2 jetzt wolte ich das intro vor das video machen geht so weit alles gut tuhe zu erst das intro rein ins progi und dann das video an sich und drücke auf zusammen schweisen so das blöde an der sache ist das ich bloß im intro ton habe und vom rest keinen was könnte das sein lg

    • szeneBOX.org Partner - Partner werden?



  2. #2
    Junior
    Registriert
    Jan 2016
    Beiträge
    58
    Gefällt mir!
    26
    Du gefällst: 35
    Welchen Codec für den Ton benutzt du bei deinen Videos? So wie ich das sehe kann Ashampoo nur mit MP2, MP3, AC3 und WMA umgehen.

    https://www.ashampoo.com/de/eur/pde/...e-studio-pro-2

  3. #3
    Senior
    THEMENSTARTER

    Avatar von SPAM-SPAM
    Registriert
    Jan 2016
    Beiträge
    422
    Gefällt mir!
    344
    Du gefällst: 216
    vielen dank schon mal


    General
    Complete name : E:\Diablo III64_20190116_165648F.avi
    Format : AVI
    Format/Info : Audio Video Interleave
    Format profile : OpenDML
    File size : 13.8 GiB
    Duration : 30mn 5s
    Overall bit rate : 65.5 Mbps

    Video
    ID : 1
    Format : JPEG
    Codec ID : MJPG
    Duration : 30mn 5s
    Bit rate : 63.9 Mbps
    Width : 1 920 pixels
    Height : 1 080 pixels
    Display aspect ratio : 16:9
    Frame rate : 30.000 fps
    Color space : YUV
    Chroma subsampling : 4:2:0
    Bit depth : 8 bits
    Compression mode : Lossy
    Bits/(Pixel*Frame) : 1.027
    Stream size : 13.4 GiB (98%)

    Audio
    ID : 0
    Format : PCM
    Format settings, Endianness : Little
    Format settings, Sign : Signed
    Codec ID : 1
    Duration : 30mn 5s
    Bit rate mode : Constant
    Bit rate : 1 536 Kbps
    Channel(s) : 2 channels
    Sampling rate : 48.0 KHz
    Bit depth : 16 bits
    Stream size : 331 MiB (2%)
    Alignment : Aligned on interleaves
    Interleave, duration : 33 ms (1.00 video frame)

  4. #4
    Junior
    Registriert
    Jan 2016
    Beiträge
    58
    Gefällt mir!
    26
    Du gefällst: 35
    Füg das Video mal z.B. in XMedia Recode ein. Stelle bei Format "AVI", bei Video auf "kopieren" und bei Audio "konvertieren" und wähle z.B. MP3 oder AC3 aus. Vielleicht geht es dann in Ashampoo.

  5. Diesen Mitgliedern gefällt dieser Beitrag:


  6. #5
    Senior
    THEMENSTARTER

    Avatar von SPAM-SPAM
    Registriert
    Jan 2016
    Beiträge
    422
    Gefällt mir!
    344
    Du gefällst: 216
    Ok werde ich morgen früh beizeiten versuchen sag dir Bescheid Hochachtungs voll SPAM-SPAM

  7. #6
    Senior
    THEMENSTARTER

    Avatar von SPAM-SPAM
    Registriert
    Jan 2016
    Beiträge
    422
    Gefällt mir!
    344
    Du gefällst: 216
    guten morgen dir ,wie versprochen habe ich es nun lange versucht mit dem XMedia Recode der teilt das video warum auch immer in 3 kleine parts ich weis zwar nicht warum so richtig aber werde das noch raus bekommen hoffe ich mal lach

Ähnliche Themen

  1. iPhone 6 Plus kein Ton
    Von nasty im Forum Technik / Hardware & Software
    Antworten: 2
    Letzter Beitrag: 02.05.2017, 16:20
  2. Das ist kein Mut, das ist einfach unverschämt!
    Von Syrius im Forum Datenschutz & Privatsphäre (IT-Security)
    Antworten: 0
    Letzter Beitrag: 17.09.2016, 06:05
  3. (Erledigt) - Kein Aktivierungslink erhalten
    Von Marla S. im Forum Feedback & Support
    Antworten: 0
    Letzter Beitrag: 14.05.2016, 03:10
  4. (Erledigt) - Kein aktivierungs link erhalten.
    Von Daz3l im Forum Feedback & Support
    Antworten: 0
    Letzter Beitrag: 19.04.2016, 11:10

Berechtigungen

  • Neue Themen erstellen: Nein
  • Themen beantworten: Nein
  • Anhänge hochladen: Nein
  • Beiträge bearbeiten: Nein
  •  
SzeneBox.org... im Mittelpunkt der Szene!
© since 2015 szeneBOX.org - All Rights Reserved
Domains: www.szenebox.org