PDA

Archiv verlassen und diese Seite im Standarddesign anzeigen : Kein ton im video



SPAM-SPAM
16.01.2019, 17:53
Einen schönen guten tag die damen :emoji04: ich habe sehr lange schon einen yt [kanal] und erstelle videos von spielen mit dem progi LoiLoGameRecorder free alles gut so weit jetzt habe ich ein wenig google gefragt wegen einen intro habe auch was gefunden und habe drei versuche die mir gleich gefallen haben und jetzt noch ein progi gekauft Ashampoo Movie Studio Pro 2 jetzt wolte ich das intro vor das video machen geht so weit alles gut tuhe zu erst das intro rein ins progi und dann das video an sich und drücke auf zusammen schweisen so das blöde an der sache ist das ich bloß im intro ton habe und vom rest keinen was könnte das sein lg

dAKTa
16.01.2019, 18:06
Welchen Codec für den Ton benutzt du bei deinen Videos? So wie ich das sehe kann Ashampoo nur mit MP2, MP3, AC3 und WMA umgehen.

https://www.ashampoo.com/de/eur/pde/0482/multimedia-software/movie-studio-pro-2

SPAM-SPAM
16.01.2019, 19:37
vielen dank schon mal :emoji56:


General
Complete name : E:\Diablo III64_20190116_165648F.avi
Format : AVI
Format/Info : Audio Video Interleave
Format profile : OpenDML
File size : 13.8 GiB
Duration : 30mn 5s
Overall bit rate : 65.5 Mbps

Video
ID : 1
Format : JPEG
Codec ID : MJPG
Duration : 30mn 5s
Bit rate : 63.9 Mbps
Width : 1 920 pixels
Height : 1 080 pixels
Display aspect ratio : 16:9
Frame rate : 30.000 fps
Color space : YUV
Chroma subsampling : 4:2:0
Bit depth : 8 bits
Compression mode : Lossy
Bits/(Pixel*Frame) : 1.027
Stream size : 13.4 GiB (98%)

Audio
ID : 0
Format : PCM
Format settings, Endianness : Little
Format settings, Sign : Signed
Codec ID : 1
Duration : 30mn 5s
Bit rate mode : Constant
Bit rate : 1 536 Kbps
Channel(s) : 2 channels
Sampling rate : 48.0 KHz
Bit depth : 16 bits
Stream size : 331 MiB (2%)
Alignment : Aligned on interleaves
Interleave, duration : 33 ms (1.00 video frame)

dAKTa
16.01.2019, 20:44
Füg das Video mal z.B. in XMedia Recode (https://www.xmedia-recode.de/download.html) ein. Stelle bei Format "AVI", bei Video auf "kopieren" und bei Audio "konvertieren" und wähle z.B. MP3 oder AC3 aus. Vielleicht geht es dann in Ashampoo.

SPAM-SPAM
16.01.2019, 21:46
Ok werde ich morgen früh beizeiten versuchen sag dir Bescheid Hochachtungs voll SPAM-SPAM

SPAM-SPAM
19.01.2019, 08:18
guten morgen dir ,wie versprochen habe ich es nun lange versucht mit dem XMedia Recode der teilt das video warum auch immer in 3 kleine parts ich weis zwar nicht warum so richtig aber werde das noch raus bekommen hoffe ich mal lach